<?xml version="1.0" standalone="no"?>
<!DOCTYPE svg PUBLIC "-//W3C//DTD SVG 1.1//EN" "http://www.w3.org/Graphics/SVG/1.1/DTD/svg11.dtd" >
<svg xmlns="http://www.w3.org/2000/svg">
<metadata></metadata>
<defs>
<font id="neutra_textregular" horiz-adv-x="1343" >
<font-face units-per-em="2048" ascent="1638" descent="-410" />
<missing-glyph horiz-adv-x="485" />
<glyph unicode="&#xfb01;" horiz-adv-x="1030" d="M70 727v121h137v385q0 137 63.5 204.5t173.5 67.5q132 0 205 -92l-90 -86q-24 25 -46.5 37t-57.5 12q-50 0 -77.5 -32.5t-27.5 -110.5v-385h524v-848h-143v727h-381v-727h-143v727h-137zM700 1194q0 43 31 72.5t72 29.5t71.5 -29.5t30.5 -72.5t-30.5 -71.5t-71.5 -28.5 t-72 28.5t-31 71.5z" />
<glyph unicode="&#xfb02;" horiz-adv-x="1038" d="M70 727v121h137v311q0 110 48 190.5t123 118t165 37.5q141 0 236 -86.5t95 -251.5v-1167h-143v1157q0 112 -50 165.5t-138 53.5q-89 0 -141 -54t-52 -165v-309h217v-121h-217v-727h-143v727h-137z" />
<glyph horiz-adv-x="0" />
<glyph horiz-adv-x="682" />
<glyph unicode="&#xd;" horiz-adv-x="485" />
<glyph unicode=" "  horiz-adv-x="485" />
<glyph unicode="&#x09;" horiz-adv-x="485" />
<glyph unicode="&#xa0;" horiz-adv-x="485" />
<glyph unicode="!" horiz-adv-x="499" d="M141 94q0 46 32.5 78.5t76.5 32.5t76 -32.5t32 -78.5q0 -45 -32.5 -76.5t-75.5 -31.5q-44 0 -76.5 31.5t-32.5 76.5zM170 1393h160l-25 -1004h-110z" />
<glyph unicode="&#x22;" horiz-adv-x="579" d="M82 1393h151l-16 -430h-119zM346 1393h152l-17 -430h-116z" />
<glyph unicode="#" horiz-adv-x="944" d="M59 582v114h164l56 222h-148v114h176l55 223h119l-55 -223h203l57 223h119l-55 -223h135v-114h-164l-55 -222h145v-114h-176l-53 -222h-121l55 222h-203l-53 -222h-121l58 222h-138zM342 696h205l55 222h-203z" />
<glyph unicode="$" horiz-adv-x="892" d="M37 213l110 59q80 -146 244 -170v383q-153 42 -226 112t-73 183q0 109 82 183.5t217 83.5v217h105v-220q96 -14 167.5 -63.5t108.5 -114.5l-102 -65q-61 106 -174 129v-340l12 -4q164 -48 241.5 -122t77.5 -190q0 -127 -86 -203t-245 -85v-230h-105v232q-128 13 -221 77 t-133 148zM227 786q0 -64 36.5 -99.5t127.5 -63.5v311q-78 -8 -121 -45.5t-43 -102.5zM496 100q96 7 145 50.5t49 113.5q0 74 -42.5 115.5t-151.5 73.5v-353z" />
<glyph unicode="%" horiz-adv-x="1568" d="M57 748q0 128 91.5 214.5t216.5 86.5q124 0 214.5 -86.5t90.5 -214.5q0 -129 -90.5 -215.5t-214.5 -86.5q-126 0 -217 86.5t-91 215.5zM182 748q0 -83 53.5 -136t129.5 -53q75 0 127.5 53t52.5 136q0 84 -52 136t-128 52t-129.5 -52t-53.5 -136zM391 0l645 1032h144 l-645 -1032h-144zM901 283q0 128 90 214.5t215 86.5t215 -86.5t90 -214.5t-90 -213.5t-215 -85.5t-215 85.5t-90 213.5zM1026 283q0 -83 52.5 -136t127.5 -53t127.5 53t52.5 136t-52.5 135.5t-127.5 52.5t-127.5 -52.5t-52.5 -135.5z" />
<glyph unicode="&#x26;" horiz-adv-x="1339" d="M88 362q0 67 18.5 125t48 101t79 85t96.5 72t116 68l-24 31q-113 140 -113 278q0 124 82.5 205.5t216.5 81.5q132 0 213.5 -81t81.5 -204q0 -101 -66 -182.5t-190 -153.5l307 -372q60 145 60 338h141q0 -261 -104 -455l245 -299h-178l-149 180q-85 -95 -197.5 -145.5 t-241.5 -50.5q-202 0 -322 103t-120 275zM242 371q0 -120 76 -188t212 -68q220 0 351 172l-361 436q-68 -37 -114.5 -69.5t-86 -75t-58.5 -93.5t-19 -114zM451 1124q0 -99 81 -196l39 -47q97 57 147 114t50 129q0 73 -44 117.5t-114 44.5q-72 0 -115.5 -43.5t-43.5 -118.5z " />
<glyph unicode="'" horiz-adv-x="315" d="M82 1393h151l-16 -430h-119z" />
<glyph unicode="(" horiz-adv-x="589" d="M90 596q0 514 352 874l90 -73q-135 -157 -213.5 -350.5t-78.5 -450.5t78.5 -450.5t213.5 -350.5l-90 -74q-352 360 -352 875z" />
<glyph unicode=")" horiz-adv-x="589" d="M57 -205q135 157 213 350.5t78 450.5t-78 450.5t-213 350.5l88 73q355 -363 355 -874q0 -512 -355 -875z" />
<glyph unicode="*" horiz-adv-x="806" d="M104 985l240 96l-240 97l64 110l201 -147l-31 252h129l-31 -252l203 147l63 -110l-241 -97l239 -96l-61 -111l-203 150l31 -256h-129l31 256l-201 -150z" />
<glyph unicode="+" horiz-adv-x="763" d="M80 453v127h235v256h131v-256h238v-127h-238v-256h-131v256h-235z" />
<glyph unicode="," horiz-adv-x="413" d="M90 -229l80 227q-33 11 -53.5 37.5t-20.5 62.5q0 45 34 78t77 33q45 0 77.5 -32.5t32.5 -78.5q0 -36 -24 -82l-123 -245h-80z" />
<glyph unicode="-" horiz-adv-x="585" d="M94 410v129h395v-129h-395z" />
<glyph unicode="." horiz-adv-x="413" d="M96 98q0 46 33.5 78.5t77.5 32.5q45 0 77.5 -32t32.5 -79t-32.5 -79.5t-77.5 -32.5q-44 0 -77.5 33t-33.5 79z" />
<glyph unicode="/" horiz-adv-x="876" d="M31 -262l614 1741h143l-614 -1741h-143z" />
<glyph unicode="0" horiz-adv-x="1251" d="M84 516q0 151 75 274.5t198.5 191t267.5 67.5q108 0 207 -40t173 -109.5t118 -169.5t44 -214q0 -149 -74.5 -272t-199 -191.5t-268.5 -68.5t-267.5 68.5t-198.5 191.5t-75 272zM236 516q0 -174 112 -288.5t277 -114.5q166 0 279.5 115t113.5 288q0 177 -113 290.5 t-280 113.5q-166 0 -277.5 -113t-111.5 -291z" />
<glyph unicode="1" horiz-adv-x="581" d="M49 909v123h373v-1032h-146v909h-227z" />
<glyph unicode="2" horiz-adv-x="964" d="M59 0v18l416 379q114 104 165.5 177t51.5 153q0 93 -54.5 142t-145.5 49q-186 0 -256 -209l-132 36q37 141 140.5 222.5t244.5 81.5q161 0 256 -87t95 -229q0 -99 -63.5 -193.5t-186.5 -207.5l-156 -142q-16 -16 -42.5 -33.5t-45.5 -27.5l-18 -10q75 6 114 6h424v-125 h-807z" />
<glyph unicode="3" horiz-adv-x="1011" d="M45 55l127 60q92 -197 315 -197q124 0 207.5 79t83.5 216q0 136 -81 210.5t-222 74.5q-90 0 -166 -37l-14 20l305 369q13 16 29 33t25 26l10 9q-54 -9 -99 -9h-413v123h745v-14l-295 -354q-12 -14 -27 -28t-25 -21l-9 -7q166 -3 277.5 -112t111.5 -285q0 -186 -125 -304 t-318 -118q-155 0 -270 71t-172 195z" />
<glyph unicode="4" horiz-adv-x="1069" d="M43 43v70l782 940h21v-889h153v-121h-153v-236h-144v236h-659zM233 158q54 6 99 6h370v465l7 108q-33 -49 -62 -86l-340 -420q-14 -16 -32.5 -34.5t-30.5 -28.5z" />
<glyph unicode="5" horiz-adv-x="993" d="M63 12l121 66q90 -160 289 -160q130 0 209.5 80.5t79.5 210.5q0 133 -76 210t-219 77q-95 0 -161.5 -29.5t-125.5 -79.5l-18 6v639h672v-123h-547v-342q84 54 207 54q186 0 302.5 -115.5t116.5 -296.5q0 -183 -122 -301.5t-318 -118.5q-147 0 -253.5 62t-156.5 161z" />
<glyph unicode="6" horiz-adv-x="1040" d="M86 395q0 84 33.5 163.5t99.5 176.5l348 514h162l-280 -415q-15 -19 -39.5 -46t-41.5 -44l-18 -17q91 74 205 74q172 0 285.5 -113.5t113.5 -290.5q0 -179 -122.5 -296t-309.5 -117t-311.5 115t-124.5 296zM231 397q0 -125 79 -205.5t210 -80.5q127 0 208 81t81 205 q0 129 -78 208t-211 79q-129 0 -209 -83.5t-80 -203.5z" />
<glyph unicode="7" horiz-adv-x="923" d="M68 909v123h798v-18l-563 -1207h-147l516 1102h-604z" />
<glyph unicode="8" horiz-adv-x="1067" d="M82 367q0 127 75 215.5t201 124.5q-82 32 -130 96.5t-48 154.5q0 129 100 218.5t252 89.5q154 0 254.5 -89t100.5 -219q0 -90 -48.5 -154.5t-129.5 -96.5q126 -36 201 -124.5t75 -215.5q0 -166 -126 -274.5t-327 -108.5q-199 0 -324.5 108.5t-125.5 274.5zM231 375 q0 -119 82.5 -190.5t218.5 -71.5t219 72.5t83 189.5q0 119 -83.5 193.5t-218.5 74.5q-136 0 -218.5 -74.5t-82.5 -193.5zM322 952q0 -86 57.5 -138t152.5 -52t153 52t58 138q0 85 -59.5 139t-151.5 54q-93 0 -151.5 -54t-58.5 -139z" />
<glyph unicode="9" horiz-adv-x="1052" d="M86 631q0 178 126 298t314 120q189 0 315 -116t126 -300q0 -86 -33.5 -163.5t-102.5 -182.5l-319 -480h-162l262 392q15 22 38.5 47t39.5 39l17 14q-41 -35 -97 -55.5t-112 -20.5q-178 0 -295 114t-117 294zM231 631q0 -130 80.5 -211.5t212.5 -81.5q131 0 213 85.5 t82 207.5q0 125 -81.5 207t-211.5 82t-212.5 -81.5t-82.5 -207.5z" />
<glyph unicode=":" horiz-adv-x="434" d="M106 98q0 46 33.5 78.5t77.5 32.5q45 0 78 -32t33 -79t-33 -79.5t-78 -32.5q-44 0 -77.5 33t-33.5 79zM106 557q0 46 33.5 78.5t77.5 32.5q45 0 78 -32t33 -79t-33 -80t-78 -33q-44 0 -77.5 33.5t-33.5 79.5z" />
<glyph unicode=";" horiz-adv-x="434" d="M100 -229l80 227q-33 11 -53.5 37.5t-20.5 62.5q0 45 34 78t77 33q45 0 78 -33t33 -78q0 -34 -25 -82l-123 -245h-80zM106 557q0 46 33.5 78.5t77.5 32.5q45 0 78 -32t33 -79t-33 -80t-78 -33q-44 0 -77.5 33.5t-33.5 79.5z" />
<glyph unicode="&#x3c;" horiz-adv-x="729" d="M74 489v21l555 293v-131l-344 -172l344 -174v-133z" />
<glyph unicode="=" horiz-adv-x="759" d="M86 311v127h588v-127h-588zM86 578v124h588v-124h-588z" />
<glyph unicode="&#x3e;" horiz-adv-x="729" d="M100 193v131l344 172l-344 174v133l555 -297v-21z" />
<glyph unicode="?" horiz-adv-x="960" d="M55 1161q51 120 155 184t245 64q181 0 292 -108t111 -283q0 -162 -101.5 -268.5t-264.5 -118.5v-248h-136v360h68q132 0 209.5 78.5t77.5 196.5q0 120 -70.5 191t-185.5 71q-102 0 -168.5 -43.5t-112.5 -136.5zM313 94q0 46 32.5 78.5t76.5 32.5t76 -32.5t32 -78.5 q0 -45 -32.5 -76.5t-75.5 -31.5q-44 0 -76.5 31.5t-32.5 76.5z" />
<glyph unicode="@" horiz-adv-x="1814" d="M100 387q0 173 65.5 325t176 258.5t260 168t313.5 61.5q228 0 411 -99t285.5 -271.5t102.5 -385.5q0 -227 -86.5 -341.5t-230.5 -114.5q-98 0 -159.5 48.5t-78.5 143.5q-87 -196 -295 -196q-153 0 -255.5 111t-102.5 280q0 170 102.5 283.5t253.5 113.5q96 0 165 -47.5 t108 -128.5l-5 156h142v-473q0 -91 29.5 -136t99.5 -45q85 0 135.5 84.5t50.5 259.5q0 138 -47 256.5t-133 204t-213 134t-279 48.5q-197 0 -353 -92.5t-241 -251.5t-85 -354q0 -198 83 -356t239 -249t360 -91q183 0 335 82l54 -103q-168 -92 -389 -92q-136 0 -260.5 37 t-225.5 108t-175.5 168.5t-115.5 225t-41 270.5zM651 375q0 -117 68 -195t174 -78q102 0 172 79.5t70 193.5q0 115 -70 195.5t-172 80.5q-106 0 -174 -79.5t-68 -196.5z" />
<glyph unicode="A" d="M76 0l577 1407h25l590 -1407h-156l-94 233h-705l-92 -233h-145zM365 360h600l-246 619q-12 29 -25.5 70.5t-20.5 68.5l-7 27q-29 -100 -56 -166z" />
<glyph unicode="B" horiz-adv-x="1247" d="M190 0v1393h474q186 0 284.5 -96.5t98.5 -245.5q0 -104 -46.5 -176t-134.5 -101q135 -32 211 -129t76 -235q0 -182 -113 -296t-327 -114h-523zM338 131h364q153 0 227.5 77t74.5 206t-78 205.5t-232 76.5h-356v-565zM338 823h336q116 0 170.5 59t54.5 160 q0 102 -59.5 161t-186.5 59h-315v-439z" />
<glyph unicode="C" horiz-adv-x="1486" d="M111 696q0 205 96 369.5t259 254t359 89.5q372 0 553 -270l-112 -82q-70 103 -182 161t-259 58q-161 0 -289.5 -75.5t-200 -208t-71.5 -296.5q0 -123 42 -230.5t116 -184t178.5 -120.5t224.5 -44q149 0 265.5 61t193.5 172l115 -80q-93 -137 -241 -211.5t-333 -74.5 q-197 0 -359.5 89.5t-258.5 253.5t-96 369z" />
<glyph unicode="D" horiz-adv-x="1392" d="M190 0v1393h338q347 0 550.5 -189.5t203.5 -507.5t-203 -507t-551 -189h-338zM338 133h180q151 0 268 41t191 116t111.5 177.5t37.5 228.5q0 258 -154.5 411t-453.5 153h-180v-1127z" />
<glyph unicode="E" horiz-adv-x="1187" d="M190 0v1393h848v-131h-700v-654h625v-129h-625v-348h729v-131h-877z" />
<glyph unicode="F" horiz-adv-x="1138" d="M190 0v1393h838v-131h-690v-654h627v-135h-627v-473h-148z" />
<glyph unicode="G" horiz-adv-x="1521" d="M111 696q0 206 94 369.5t257.5 253.5t364.5 90q318 0 486 -180l-101 -101q-142 148 -385 148q-161 0 -290 -75.5t-201 -208t-72 -296.5q0 -250 162 -414.5t414 -164.5q255 0 411 127v286h-413v132h553v-486q-85 -83 -226.5 -137.5t-324.5 -54.5q-154 0 -289 52.5 t-232 145.5t-152.5 226t-55.5 288z" />
<glyph unicode="H" horiz-adv-x="1421" d="M190 0v1393h148v-785h745v785h148v-1393h-148v473h-745v-473h-148z" />
<glyph unicode="I" horiz-adv-x="542" d="M197 0v1393h149v-1393h-149z" />
<glyph unicode="J" horiz-adv-x="989" d="M68 193l120 75q87 -151 234 -151q107 0 168 62.5t61 191.5v1022h150v-1026q0 -186 -102.5 -284.5t-270.5 -98.5q-247 0 -360 209z" />
<glyph unicode="K" horiz-adv-x="1243" d="M190 0v1393h148v-660q0 -55 -12 -190q70 133 100 172l526 678h166l-516 -672l572 -721h-183l-485 612l-168 -202v-410h-148z" />
<glyph unicode="L" horiz-adv-x="1079" d="M190 0v1393h148v-1262h657v-131h-805z" />
<glyph unicode="M" horiz-adv-x="1714" d="M190 0v1409h21l647 -809l643 809h23v-1409h-144v920l6 159q-53 -90 -98 -145l-422 -533h-24l-416 533q-20 24 -45 60.5t-40 60.5l-15 24q8 -96 8 -159v-920h-144z" />
<glyph unicode="N" horiz-adv-x="1460" d="M190 0v1407h25l832 -983q17 -21 41 -53t40 -54l15 -22q-10 99 -10 158v940h137v-1407h-25l-831 983q-17 21 -41.5 53t-40.5 54l-15 22q13 -99 13 -158v-940h-140z" />
<glyph unicode="O" horiz-adv-x="1652" d="M111 696q0 205 96 369.5t259 254t359 89.5q197 0 360.5 -89.5t260 -254t96.5 -369.5t-96.5 -369t-259.5 -253.5t-361 -89.5q-197 0 -359.5 89.5t-258.5 253.5t-96 369zM264 696q0 -123 42.5 -230.5t116.5 -184t178 -120.5t224 -44q244 0 404 165t160 414 q0 164 -72.5 296.5t-201.5 208t-290 75.5q-242 0 -401.5 -165t-159.5 -415z" />
<glyph unicode="P" horiz-adv-x="1196" d="M190 0v1393h316q279 0 427 -142t148 -383q0 -238 -148.5 -380t-426.5 -142h-168v-346h-148zM338 475h160q224 0 327 105t103 288q0 89 -23.5 159t-73.5 123.5t-134.5 82.5t-198.5 29h-160v-787z" />
<glyph unicode="Q" horiz-adv-x="1652" d="M111 696q0 205 96 369.5t259 254t359 89.5q197 0 360.5 -89.5t260 -254t96.5 -369.5q0 -153 -55 -284.5t-154 -229.5l211 -225l-102 -86l-213 229q-180 -116 -404 -116q-197 0 -359.5 89.5t-258.5 253.5t-96 369zM264 696q0 -123 42.5 -230.5t116.5 -184t178 -120.5 t224 -44q176 0 310 86l-211 229l100 86l213 -231q152 161 152 409q0 164 -72.5 296.5t-201.5 208t-290 75.5q-242 0 -401.5 -165t-159.5 -415z" />
<glyph unicode="R" horiz-adv-x="1220" d="M190 0v1393h314q278 0 427.5 -140.5t149.5 -373.5q0 -159 -73.5 -276t-216.5 -175l303 -428h-174l-269 381q-70 -12 -147 -12h-166v-369h-148zM338 498h158q115 0 200 28.5t135 80.5t73.5 119.5t23.5 152.5q0 176 -104.5 279.5t-327.5 103.5h-158v-764z" />
<glyph unicode="S" horiz-adv-x="1087" d="M59 266l123 66q27 -48 57 -84t72.5 -67.5t100.5 -48.5t129 -17q125 0 206.5 64.5t81.5 172.5q0 101 -61.5 165t-200.5 126l-110 51q-106 48 -169.5 96t-100.5 119t-37 166q0 149 103.5 241.5t262.5 92.5q251 0 377 -209l-119 -74q-44 72 -105 112t-153 40 q-102 0 -161.5 -54.5t-59.5 -144.5q0 -89 49 -141t172 -109l111 -51q181 -80 265.5 -177.5t84.5 -248.5q0 -169 -120.5 -268.5t-311.5 -99.5q-96 0 -177 23t-139 63.5t-99.5 88.5t-70.5 107z" />
<glyph unicode="T" horiz-adv-x="1138" d="M68 1262v131h1003v-131h-428v-1262h-147v1262h-428z" />
<glyph unicode="U" horiz-adv-x="1355" d="M178 475v918h148v-908q0 -182 93 -276t259 -94q165 0 258.5 94t93.5 276v908h148v-918q0 -236 -139.5 -363.5t-360.5 -127.5q-223 0 -361.5 127.5t-138.5 363.5z" />
<glyph unicode="V" d="M76 1393h160l382 -944q13 -31 28 -78.5t24 -78.5l8 -32q30 119 59 189l381 944h150l-580 -1407h-24z" />
<glyph unicode="W" horiz-adv-x="1951" d="M72 1393h157l293 -928l39 -152q22 93 45 152l363 942h24l363 -942q10 -26 21.5 -64t17.5 -63l6 -25q21 93 39 152l291 928h149l-459 -1407h-24l-375 991q-10 25 -20.5 59.5t-15.5 55.5l-5 22q-20 -80 -43 -137l-381 -991h-25z" />
<glyph unicode="X" horiz-adv-x="1300" d="M88 0l477 758l-401 635h168l276 -435q10 -16 21.5 -40t17.5 -40l6 -16q20 61 43 96l275 435h162l-400 -635l481 -758h-167l-355 557q-10 16 -22 40.5t-18 40.5l-7 17q-20 -61 -43 -98l-352 -557h-162z" />
<glyph unicode="Y" d="M76 1393h166l379 -693q14 -24 28.5 -59t22.5 -59l8 -23q30 86 59 141l377 693h154l-516 -951v-442h-152v436z" />
<glyph unicode="Z" horiz-adv-x="1189" d="M80 0v23l778 1239h-668v131h897v-23l-776 -1239h781v-131h-1012z" />
<glyph unicode="[" horiz-adv-x="624" d="M156 -262v1741h395v-123h-252v-1495h252v-123h-395z" />
<glyph unicode="\" horiz-adv-x="878" d="M88 1479h143l617 -1741h-143z" />
<glyph unicode="]" horiz-adv-x="624" d="M74 -139h252v1495h-252v123h397v-1741h-397v123z" />
<glyph unicode="^" horiz-adv-x="854" d="M139 948l279 461h18l279 -461h-119l-168 258l-170 -258h-119z" />
<glyph unicode="_" horiz-adv-x="524" d="M-4 -135h532v-127h-532v127z" />
<glyph unicode="`" horiz-adv-x="1024" d="M268 1415h164l139 -395h-112z" />
<glyph unicode="a" horiz-adv-x="964" d="M92 242q0 125 90.5 190.5t231.5 65.5h264v20q0 119 -51 173t-148 54q-158 0 -248 -122l-88 79q121 164 346 164q148 0 240 -88t92 -258v-520h-143l6 127q-95 -143 -281 -143q-141 0 -226 65.5t-85 192.5zM231 248q0 -72 52.5 -110t152.5 -38q101 0 171.5 51t70.5 132v106 h-254q-88 0 -140.5 -34t-52.5 -107z" />
<glyph unicode="b" horiz-adv-x="1128" d="M154 0v1479h141v-805q104 192 326 192q174 0 291.5 -126t117.5 -314q0 -189 -119 -315.5t-293 -126.5q-111 0 -197 54t-130 144l4 -182h-141zM289 426q0 -139 83.5 -228t217.5 -89q132 0 212.5 88.5t80.5 228.5q0 138 -80.5 225.5t-212.5 87.5q-134 0 -217.5 -88 t-83.5 -225z" />
<glyph unicode="c" horiz-adv-x="956" d="M98 424q0 186 127 314t314 128q208 0 333 -151l-102 -84q-81 108 -231 108q-133 0 -213 -89t-80 -226t80 -226t213 -89q150 0 243 110l99 -84q-126 -151 -342 -151q-187 0 -314 127t-127 313z" />
<glyph unicode="d" horiz-adv-x="1128" d="M98 426q0 188 118.5 314t291.5 126q222 0 326 -192v805h141v-1479h-141l4 182q-44 -90 -130.5 -144t-197.5 -54q-174 0 -293 126.5t-119 315.5zM246 426q0 -140 80.5 -228.5t212.5 -88.5q134 0 217.5 89t83.5 228q0 137 -83.5 225t-217.5 88q-132 0 -212.5 -87.5 t-80.5 -225.5z" />
<glyph unicode="e" horiz-adv-x="1056" d="M98 424q0 186 126.5 314t312.5 128q201 0 317 -138q109 -129 110 -324q0 -13 -1 -27h-721q14 -125 96.5 -199t218.5 -74q166 0 268 113l88 -86q-130 -147 -356 -147q-206 0 -332.5 125.5t-126.5 314.5zM244 485h575q-10 115 -82 187.5t-200 72.5q-120 0 -197.5 -70.5 t-95.5 -189.5z" />
<glyph unicode="f" horiz-adv-x="651" d="M70 727v121h137v385q0 137 63 204.5t172 67.5q144 0 215 -104l-94 -84q-24 31 -46.5 45t-61.5 14q-105 0 -105 -143v-385h228v-121h-228v-727h-143v727h-137z" />
<glyph unicode="g" horiz-adv-x="964" d="M37 -178q0 159 201 221q-119 40 -119 158q0 53 31 93t86 62q-93 80 -93 209q0 132 95 216.5t243 84.5q65 0 121 -18h307v-109h-166q68 -71 68 -174q0 -132 -92 -217.5t-238 -85.5q-103 0 -174 39q-33 -9 -51 -32t-18 -54q0 -80 110 -86l217 -16q181 -13 269 -80t88 -189 q0 -139 -120.5 -220t-330.5 -81q-203 0 -318.5 75.5t-115.5 203.5zM178 -166q0 -176 293 -176q143 0 224 47t81 133q0 72 -51.5 105.5t-183.5 42.5l-213 14q-150 -45 -150 -166zM274 565q0 -87 54.5 -139.5t150.5 -52.5q94 0 148.5 52.5t54.5 139.5t-54.5 139t-148.5 52 q-96 0 -150.5 -52t-54.5 -139z" />
<glyph unicode="h" horiz-adv-x="1056" d="M152 0v1479h143v-797q40 86 119.5 135t181.5 49q143 0 230 -93.5t87 -256.5v-516h-143v500q0 114 -53 174.5t-158 60.5q-120 0 -192 -71.5t-72 -196.5v-467h-143z" />
<glyph unicode="i" horiz-adv-x="454" d="M125 1194q0 43 30.5 72.5t71.5 29.5t72 -29.5t31 -72.5t-31 -71.5t-72 -28.5t-71.5 28.5t-30.5 71.5zM156 0v848h143v-848h-143z" />
<glyph unicode="j" horiz-adv-x="454" d="M-117 -371l80 86q18 -16 28 -24t29 -15.5t41 -7.5q95 0 95 129v1051h143v-1049q0 -123 -61.5 -188.5t-165.5 -65.5q-113 0 -189 84zM125 1194q0 43 30.5 72.5t71.5 29.5t72 -29.5t31 -72.5t-31 -71.5t-72 -28.5t-71.5 28.5t-30.5 71.5z" />
<glyph unicode="k" horiz-adv-x="948" d="M152 0v1479h143v-949q0 -62 -10 -120l403 438h166l-326 -356l377 -492h-170l-307 397l-133 -139v-258h-143z" />
<glyph unicode="l" horiz-adv-x="466" d="M162 0v1479h143v-1479h-143z" />
<glyph unicode="m" horiz-adv-x="1550" d="M152 0v848h143l-4 -160q85 178 266 178q97 0 162 -47.5t94 -130.5q47 86 123.5 132t169.5 46q140 0 220.5 -86.5t80.5 -236.5v-543h-141v524q0 104 -45 157.5t-142 53.5q-103 0 -165 -68t-62 -192v-475h-143v524q0 211 -185 211q-104 0 -166.5 -68.5t-62.5 -191.5v-475 h-143z" />
<glyph unicode="n" horiz-adv-x="1056" d="M152 0v848h143l-4 -174q41 91 121.5 141.5t183.5 50.5q143 0 230 -93.5t87 -256.5v-516h-143v500q0 114 -53 174.5t-158 60.5q-120 0 -192 -71.5t-72 -196.5v-467h-143z" />
<glyph unicode="o" horiz-adv-x="1093" d="M98 424q0 186 130.5 314t320.5 128q189 0 317.5 -128t128.5 -314t-128.5 -313t-317.5 -127q-191 0 -321 127t-130 313zM244 424q0 -138 85 -228t220 -90q134 0 217.5 90t83.5 228t-83.5 227.5t-217.5 89.5q-135 0 -220 -89.5t-85 -227.5z" />
<glyph unicode="p" horiz-adv-x="1128" d="M154 -434v1282h141l-4 -182q46 92 130.5 146t199.5 54q174 0 291.5 -126t117.5 -314q0 -189 -119 -315.5t-293 -126.5q-110 0 -195 53t-128 139v-610h-141zM289 426q0 -139 83.5 -228t217.5 -89q132 0 212.5 88.5t80.5 228.5q0 138 -80.5 225.5t-212.5 87.5 q-134 0 -217.5 -88t-83.5 -225z" />
<glyph unicode="q" horiz-adv-x="1130" d="M98 426q0 188 118.5 314t291.5 126q117 0 200 -54t130 -146l-4 182h143v-1282h-143v610q-43 -86 -128 -139t-196 -53q-174 0 -293 126.5t-119 315.5zM246 426q0 -140 80.5 -228.5t212.5 -88.5q134 0 217.5 89t83.5 228q0 137 -83.5 225t-217.5 88q-132 0 -212.5 -87.5 t-80.5 -225.5z" />
<glyph unicode="r" horiz-adv-x="731" d="M152 0v848h143l-4 -166q38 93 103.5 137.5t144.5 44.5q88 0 147 -41l-55 -125q-50 33 -117 33q-97 0 -158 -71.5t-61 -213.5v-446h-143z" />
<glyph unicode="s" horiz-adv-x="839" d="M74 180l110 64q86 -144 246 -144q85 0 132.5 34t47.5 93q0 23 -5 40.5t-20.5 32t-28.5 23.5t-45.5 21t-53 18.5t-68.5 20.5q-58 17 -97.5 34t-79 45.5t-59.5 72t-20 100.5q0 107 79 169t200 62q186 0 282 -137l-98 -76q-71 97 -184 97q-69 0 -108.5 -29.5t-39.5 -79.5 q0 -57 40.5 -84t160.5 -61q62 -17 105.5 -35t86.5 -47.5t65.5 -74t22.5 -103.5q0 -113 -78 -182.5t-231 -69.5q-132 0 -224.5 55t-137.5 141z" />
<glyph unicode="t" horiz-adv-x="688" d="M70 727v121h131v442h141v-442h238v-121h-238v-473q0 -81 25.5 -114.5t74.5 -33.5q61 0 115 50l78 -90q-80 -84 -207 -84q-104 0 -165.5 65.5t-61.5 208.5v471h-131z" />
<glyph unicode="u" horiz-adv-x="1054" d="M143 328v520h144v-506q0 -111 53 -170t156 -59q121 0 192.5 72t71.5 196v467h143v-848h-143l4 172q-41 -90 -121 -140t-182 -50q-143 0 -230.5 92.5t-87.5 253.5z" />
<glyph unicode="v" horiz-adv-x="946" d="M51 848h158l225 -490q12 -25 23.5 -61.5t17.5 -60.5l6 -23q18 88 45 145l222 490h147l-406 -864h-26z" />
<glyph unicode="w" horiz-adv-x="1398" d="M51 848h156l182 -467q10 -24 20 -57t15 -54l4 -20q16 76 43 131l221 479h19l225 -477q12 -25 23 -58.5t17 -54.5l5 -20q16 78 39 133l182 465h146l-353 -866h-20l-234 510q-11 23 -21.5 54t-15.5 50l-4 20q-18 -75 -41 -124l-239 -510h-21z" />
<glyph unicode="x" horiz-adv-x="962" d="M63 0l336 451l-290 397h170l159 -221q11 -15 23.5 -37t18.5 -36l7 -15q16 55 41 88l162 221h158l-287 -387l338 -461h-172l-201 279q-10 15 -23.5 38.5t-21.5 39.5l-8 16q-24 -61 -49 -94l-203 -279h-158z" />
<glyph unicode="y" horiz-adv-x="946" d="M51 848h158l240 -526q10 -24 19.5 -60t13.5 -60l5 -24q14 91 39 144l222 526h147l-553 -1282h-147l217 506z" />
<glyph unicode="z" horiz-adv-x="854" d="M66 0v20l489 709h-436v119h667v-23l-493 -706h483v-119h-710z" />
<glyph unicode="{" horiz-adv-x="751" d="M51 483v125h119q60 0 89.5 32t29.5 110v434q0 295 272 295h117v-123h-109q-68 0 -101.5 -38.5t-33.5 -135.5v-447q0 -89 -35 -132t-98 -56q133 -28 133 -191v-321q0 -97 33.5 -135.5t101.5 -38.5h109v-123h-117q-272 0 -272 295v309q0 78 -29.5 109.5t-89.5 31.5h-119z " />
<glyph unicode="|" horiz-adv-x="485" d="M174 -262v1741h137v-1741h-137z" />
<glyph unicode="}" horiz-adv-x="749" d="M74 -139h108q68 0 101.5 38.5t33.5 135.5v321q0 164 134 189q-134 28 -134 190v447q0 97 -33.5 135.5t-101.5 38.5h-108v123h116q271 0 271 -295v-432q0 -78 30.5 -111t90.5 -33h116v-125h-116q-60 0 -90.5 -31.5t-30.5 -107.5v-311q0 -295 -271 -295h-116v123z" />
<glyph unicode="~" horiz-adv-x="804" d="M104 469q4 108 52 167.5t125 59.5q41 0 72 -16t69 -51q5 -4 14 -12t12.5 -11t10.5 -8.5t10 -7.5t8.5 -6t8.5 -5t7.5 -3.5t8.5 -3t8.5 -1t9.5 -0.5q33 0 50.5 28.5t23.5 92.5l106 -10q-4 -109 -50 -167t-124 -58q-41 0 -72 16t-69 51q-31 27 -42.5 35t-26 14.5t-31.5 6.5 q-62 0 -74 -121z" />
<glyph unicode="&#xa1;" horiz-adv-x="499" d="M141 1298q0 45 33 77t76 32t75.5 -32t32.5 -77q0 -46 -32 -78t-76 -32t-76.5 32t-32.5 78zM170 0l25 1004h110l25 -1004h-160z" />
<glyph unicode="&#xa2;" horiz-adv-x="962" d="M98 424q0 170 107 293t272 145v221h105v-219q180 -11 292 -149l-100 -82q-73 92 -192 106v-630q124 13 204 110l99 -84q-116 -138 -303 -149v-224h-105v226q-165 22 -272 144t-107 292zM244 424q0 -121 62.5 -206t170.5 -105v622q-107 -20 -170 -105t-63 -206z" />
<glyph unicode="&#xa3;" horiz-adv-x="1114" d="M57 170q0 79 56.5 128.5t144.5 49.5q74 0 156 -45q-13 84 -76 229h-195v115h146q-64 161 -64 268q0 151 106.5 251t280.5 100q135 0 232.5 -63.5t144.5 -164.5l-119 -65q-44 84 -102.5 124t-155.5 40q-111 0 -174 -60.5t-63 -167.5q0 -105 59 -262h332v-115h-289 q64 -182 64 -303v-10q52 -37 80.5 -54.5t75.5 -35.5t91 -18q109 0 187 88l86 -88q-101 -127 -268 -127q-140 0 -291 122q-36 -55 -98 -88.5t-134 -33.5q-96 0 -154.5 52t-58.5 134zM174 166q0 -37 25 -60.5t69 -23.5q47 0 88 27.5t56 70.5q-92 70 -144 70q-44 0 -69 -23.5 t-25 -60.5z" />
<glyph unicode="&#xa4;" horiz-adv-x="1271" d="M82 336v115h149q-4 40 -4 65q0 24 4 64h-149v114h174q53 160 189.5 257.5t310.5 97.5q262 0 407 -193l-106 -82q-57 76 -127.5 113t-173.5 37q-122 0 -214.5 -61.5t-135.5 -168.5h444v-114h-473q-4 -40 -4 -64q0 -25 4 -65h473v-115h-442q43 -106 135.5 -166.5 t212.5 -60.5q111 0 184 39t131 116l105 -74q-134 -206 -420 -206q-173 0 -309.5 96.5t-190.5 255.5h-174z" />
<glyph unicode="&#xa5;" horiz-adv-x="1142" d="M84 1032h162l274 -477q15 -26 28.5 -60.5t19.5 -55.5l7 -21q25 78 58 137l274 477h152l-256 -434h219v-115h-287l-84 -141h371v-115h-377v-227h-147v227h-379v115h373l-84 141h-289v115h221z" />
<glyph unicode="&#xa6;" horiz-adv-x="409" d="M96 500q0 46 33.5 78t77.5 32q45 0 77.5 -31.5t32.5 -78.5t-32.5 -80t-77.5 -33q-44 0 -77.5 33.5t-33.5 79.5z" />
<glyph unicode="&#xa7;" horiz-adv-x="1013" d="M66 608q0 75 44 131.5t121 89.5q-41 65 -41 152q0 125 91 205t229 80q235 0 328 -207l-117 -53q-33 67 -80.5 104t-126.5 37q-85 0 -134.5 -43.5t-49.5 -118.5q0 -66 33 -107t112 -73l201 -80q143 -56 207.5 -127.5t64.5 -169.5q0 -74 -44 -128t-120 -85q47 -65 47 -152 q0 -124 -87.5 -199t-245.5 -75q-132 0 -232 61.5t-145 159.5l115 58q81 -158 258 -158q91 0 142.5 41.5t51.5 111.5q0 59 -39 97t-129 73l-182 72q-143 55 -207.5 125.5t-64.5 177.5zM203 625q0 -69 37.5 -111t134.5 -80l186 -72q104 -40 154 -79q98 43 98 127 q0 64 -38.5 104.5t-139.5 81.5l-201 80q-91 38 -147 86q-84 -43 -84 -137z" />
<glyph unicode="&#xa8;" horiz-adv-x="1024" d="M240 1151q0 39 28.5 66.5t65.5 27.5q39 0 67.5 -27.5t28.5 -66.5q0 -38 -29 -66t-67 -28q-37 0 -65.5 28t-28.5 66zM594 1151q0 39 29 66.5t67 27.5q37 0 65.5 -27.5t28.5 -66.5q0 -38 -28.5 -66t-65.5 -28t-66.5 28t-29.5 66z" />
<glyph unicode="&#xa9;" horiz-adv-x="1224" d="M80 516q0 150 72.5 273t195 191.5t266.5 68.5q143 0 264.5 -68.5t194 -191.5t72.5 -273q0 -112 -43 -211t-115 -168.5t-169.5 -110t-203.5 -40.5q-144 0 -266.5 68t-195 190.5t-72.5 271.5zM166 516q0 -194 129 -321t319 -127q188 0 316.5 127t128.5 321 q0 196 -128.5 323.5t-316.5 127.5q-190 0 -319 -127.5t-129 -323.5zM317 516q0 131 86 219t213 88q139 0 236 -104l-84 -78q-54 70 -143 70q-78 0 -127 -55t-49 -140q0 -83 49.5 -137.5t126.5 -54.5q90 0 149 73l84 -78q-93 -108 -237 -108q-129 0 -216.5 87.5t-87.5 217.5z " />
<glyph unicode="&#xaa;" horiz-adv-x="823" d="M80 522q0 107 81 164t204 57h217q0 108 -43 151.5t-125 43.5q-122 0 -207 -102l-82 71q100 142 299 142q130 0 210.5 -74t80.5 -227v-433h-133l2 95q-36 -52 -96.5 -81.5t-137.5 -29.5q-120 0 -195 57.5t-75 165.5zM213 526q0 -60 44 -90t124 -30q86 0 143.5 42t57.5 113 v82h-203q-166 0 -166 -117z" />
<glyph unicode="&#xab;" horiz-adv-x="813" d="M78 401v17l192 321h148l-197 -329l197 -334h-148zM395 401v17l193 321h147l-196 -329l196 -334h-147z" />
<glyph unicode="&#xac;" horiz-adv-x="409" d="M96 500q0 46 33.5 78t77.5 32q45 0 77.5 -31.5t32.5 -78.5t-32.5 -80t-77.5 -33q-44 0 -77.5 33.5t-33.5 79.5z" />
<glyph unicode="&#xad;" horiz-adv-x="585" d="M94 410v129h395v-129h-395z" />
<glyph unicode="&#xae;" horiz-adv-x="1052" d="M78 981q0 125 60 226.5t161.5 157.5t222.5 56q189 0 321 -125.5t132 -314.5q0 -187 -132.5 -312.5t-320.5 -125.5q-185 0 -314.5 125.5t-129.5 312.5zM162 981q0 -164 101 -265.5t259 -101.5q162 0 266.5 101.5t104.5 265.5q0 165 -104.5 267t-266.5 102 q-158 0 -259 -101.5t-101 -267.5zM365 741v486h149q101 0 155 -53t54 -132q0 -51 -25 -92.5t-71 -64.5l96 -144h-98l-80 121q-8 -2 -29 -2h-61v-119h-90zM455 932h59q119 0 119 108q0 52 -29 81.5t-90 29.5h-59v-219z" />
<glyph unicode="&#xaf;" horiz-adv-x="1024" d="M297 1061v113h430v-113h-430z" />
<glyph unicode="&#xb0;" horiz-adv-x="665" d="M94 817q0 98 70 165t170 67q99 0 168 -67t69 -165q0 -97 -69.5 -164t-167.5 -67q-100 0 -170 67t-70 164zM201 817q0 -60 36.5 -98.5t96.5 -38.5q58 0 94.5 38.5t36.5 98.5t-36.5 98.5t-94.5 38.5q-60 0 -96.5 -38.5t-36.5 -98.5z" />
<glyph unicode="&#xb1;" horiz-adv-x="1562" d="M70 727v121h137v344q0 137 62.5 204.5t170.5 67.5q139 0 209 -90l-92 -90q-41 51 -102 51q-50 0 -77.5 -32.5t-27.5 -110.5v-344h381v311q0 110 48 190.5t123 118t165 37.5q141 0 236.5 -86.5t95.5 -251.5v-1167h-144v1157q0 112 -50 165.5t-138 53.5q-89 0 -141 -54 t-52 -165v-309h218v-121h-218v-727h-143v727h-381v-727h-143v727h-137z" />
<glyph unicode="&#xb2;" horiz-adv-x="409" d="M96 500q0 46 33.5 78t77.5 32q45 0 77.5 -31.5t32.5 -78.5t-32.5 -80t-77.5 -33q-44 0 -77.5 33.5t-33.5 79.5z" />
<glyph unicode="&#xb3;" horiz-adv-x="409" d="M96 500q0 46 33.5 78t77.5 32q45 0 77.5 -31.5t32.5 -78.5t-32.5 -80t-77.5 -33q-44 0 -77.5 33.5t-33.5 79.5z" />
<glyph unicode="&#xb4;" horiz-adv-x="1024" d="M453 1020l139 395h164l-191 -395h-112z" />
<glyph unicode="&#xb6;" horiz-adv-x="1280" d="M104 1006q0 163 110 275t294 112h582v-1393h-142v1266h-164v-1266h-145v623h-131q-185 0 -294.5 109.5t-109.5 273.5zM262 1008q0 -118 66 -189t182 -71h129v518h-129q-116 0 -182 -70t-66 -188z" />
<glyph unicode="&#xb7;" horiz-adv-x="413" d="M96 500q0 46 33.5 78t77.5 32q45 0 77.5 -31.5t32.5 -78.5t-32.5 -80t-77.5 -33q-44 0 -77.5 33.5t-33.5 79.5z" />
<glyph unicode="&#xb8;" horiz-adv-x="1024" d="M317 -354l89 51q16 -26 26 -39t32 -25t52 -12q39 0 65.5 24t26.5 68q0 42 -27.5 69.5t-80.5 27.5h-45v190h98v-109q70 -10 119 -59.5t49 -126.5q0 -82 -58.5 -131t-138.5 -49q-75 0 -127.5 33.5t-79.5 87.5z" />
<glyph unicode="&#xb9;" horiz-adv-x="409" d="M96 500q0 46 33.5 78t77.5 32q45 0 77.5 -31.5t32.5 -78.5t-32.5 -80t-77.5 -33q-44 0 -77.5 33.5t-33.5 79.5z" />
<glyph unicode="&#xba;" horiz-adv-x="929" d="M86 674q0 159 110.5 267t268.5 108t268.5 -108t110.5 -267q0 -160 -110.5 -267.5t-268.5 -107.5t-268.5 107.5t-110.5 267.5zM223 674q0 -116 67 -189t175 -73t176 73t68 189q0 114 -68 187t-176 73t-175 -72.5t-67 -187.5z" />
<glyph unicode="&#xbb;" horiz-adv-x="813" d="M78 76l196 332l-196 331h147l193 -323v-17l-193 -323h-147zM395 76l197 332l-197 331h148l192 -323v-17l-192 -323h-148z" />
<glyph unicode="&#xbc;" horiz-adv-x="409" d="M96 500q0 46 33.5 78t77.5 32q45 0 77.5 -31.5t32.5 -78.5t-32.5 -80t-77.5 -33q-44 0 -77.5 33.5t-33.5 79.5z" />
<glyph unicode="&#xbd;" horiz-adv-x="409" d="M96 500q0 46 33.5 78t77.5 32q45 0 77.5 -31.5t32.5 -78.5t-32.5 -80t-77.5 -33q-44 0 -77.5 33.5t-33.5 79.5z" />
<glyph unicode="&#xbe;" horiz-adv-x="409" d="M96 500q0 46 33.5 78t77.5 32q45 0 77.5 -31.5t32.5 -78.5t-32.5 -80t-77.5 -33q-44 0 -77.5 33.5t-33.5 79.5z" />
<glyph unicode="&#xbf;" horiz-adv-x="960" d="M102 375q0 162 101.5 268.5t265.5 118.5v248h135v-361h-67q-133 0 -210 -78t-77 -196q0 -120 70.5 -191t185.5 -71q101 0 167.5 43.5t112.5 136.5l119 -62q-51 -120 -154.5 -183.5t-244.5 -63.5q-181 0 -292.5 108t-111.5 283zM430 1298q0 45 33 77t76 32t75.5 -32 t32.5 -77q0 -46 -32 -78t-76 -32t-76.5 32t-32.5 78z" />
<glyph unicode="&#xc0;" d="M76 0l577 1407h25l590 -1407h-156l-94 233h-705l-92 -233h-145zM365 360h600l-246 619q-12 29 -25.5 70.5t-20.5 68.5l-7 27q-29 -100 -56 -166zM422 1937h164l139 -395h-113z" />
<glyph unicode="&#xc1;" d="M76 0l577 1407h25l590 -1407h-156l-94 233h-705l-92 -233h-145zM365 360h600l-246 619q-12 29 -25.5 70.5t-20.5 68.5l-7 27q-29 -100 -56 -166zM612 1542l140 395h163l-190 -395h-113z" />
<glyph unicode="&#xc2;" d="M76 0l577 1407h25l590 -1407h-156l-94 233h-705l-92 -233h-145zM365 360h600l-246 619q-12 29 -25.5 70.5t-20.5 68.5l-7 27q-29 -100 -56 -166zM393 1538l262 395h19l262 -395h-125l-145 203l-148 -203h-125z" />
<glyph unicode="&#xc3;" d="M76 0l577 1407h25l590 -1407h-156l-94 233h-705l-92 -233h-145zM365 360h600l-246 619q-12 29 -25.5 70.5t-20.5 68.5l-7 27q-29 -100 -56 -166zM367 1540q6 108 54 167.5t124 59.5q40 0 71.5 -16t69.5 -49q41 -37 58 -47t40 -10q32 0 50 28.5t24 89.5l107 -10 q-6 -108 -53 -166.5t-124 -58.5q-39 0 -70.5 16.5t-70.5 50.5q-42 37 -58.5 47.5t-39.5 10.5q-64 0 -76 -121z" />
<glyph unicode="&#xc4;" d="M76 0l577 1407h25l590 -1407h-156l-94 233h-705l-92 -233h-145zM365 360h600l-246 619q-12 29 -25.5 70.5t-20.5 68.5l-7 27q-29 -100 -56 -166zM397 1673q0 39 28.5 66.5t66.5 27.5q39 0 67.5 -27.5t28.5 -66.5q0 -38 -29 -66t-67 -28q-37 0 -66 28t-29 66zM752 1673 q0 39 29 66.5t67 27.5q37 0 65.5 -27.5t28.5 -66.5q0 -38 -28.5 -66t-65.5 -28t-66.5 28t-29.5 66z" />
<glyph unicode="&#xc5;" d="M76 0l577 1407h25l590 -1407h-156l-94 233h-705l-92 -233h-145zM365 360h600l-246 619q-12 29 -25.5 70.5t-20.5 68.5l-7 27q-29 -100 -56 -166zM455 1694q0 87 62.5 147t152.5 60t152.5 -60t62.5 -147q0 -85 -62.5 -145t-152.5 -60t-152.5 60t-62.5 145zM563 1694 q0 -51 30 -82t77 -31t76.5 31t29.5 82q0 52 -29 82t-77 30t-77.5 -30t-29.5 -82z" />
<glyph unicode="&#xc6;" horiz-adv-x="1951" d="M55 0l930 1393h817v-131h-698v-654h622v-129h-622v-348h727v-131h-877v233h-585l-156 -233h-158zM457 365h497v630q0 33 4 76t8 69l3 27q-41 -90 -84 -153z" />
<glyph unicode="&#xc7;" horiz-adv-x="1486" d="M111 696q0 205 96 369.5t259 254t359 89.5q372 0 553 -270l-112 -82q-70 103 -182 161t-259 58q-161 0 -289.5 -75.5t-200 -208t-71.5 -296.5q0 -123 42 -230.5t116 -184t178.5 -120.5t224.5 -44q149 0 265.5 61t193.5 172l115 -80q-93 -137 -241 -211.5t-333 -74.5v-93 q70 -10 119 -59.5t49 -126.5q0 -82 -58 -131t-138 -49q-75 0 -127.5 33.5t-79.5 87.5l88 51q16 -26 26 -39t32 -25t52 -12q39 0 66 24t27 68q0 42 -28 69.5t-81 27.5h-45v180q-130 16 -243 75t-195.5 149.5t-130 215.5t-47.5 266z" />
<glyph unicode="&#xc8;" horiz-adv-x="1187" d="M190 0v1393h848v-131h-700v-654h625v-129h-625v-348h729v-131h-877zM385 1937h164l139 -395h-113z" />
<glyph unicode="&#xc9;" horiz-adv-x="1187" d="M190 0v1393h848v-131h-700v-654h625v-129h-625v-348h729v-131h-877zM551 1542l139 395h164l-190 -395h-113z" />
<glyph unicode="&#xca;" horiz-adv-x="1187" d="M190 0v1393h848v-131h-700v-654h625v-129h-625v-348h729v-131h-877zM352 1538l262 395h19l262 -395h-125l-145 203l-148 -203h-125z" />
<glyph unicode="&#xcb;" horiz-adv-x="1187" d="M190 0v1393h848v-131h-700v-654h625v-129h-625v-348h729v-131h-877zM350 1673q0 39 28.5 66.5t65.5 27.5q39 0 68 -27.5t29 -66.5q0 -38 -29 -66t-68 -28q-37 0 -65.5 28t-28.5 66zM705 1673q0 39 29 66.5t67 27.5q37 0 65.5 -27.5t28.5 -66.5q0 -38 -28.5 -66t-65.5 -28 t-66.5 28t-29.5 66z" />
<glyph unicode="&#xcc;" horiz-adv-x="542" d="M20 1937h164l140 -395h-113zM197 0v1393h149v-1393h-149z" />
<glyph unicode="&#xcd;" horiz-adv-x="542" d="M197 0v1393h149v-1393h-149zM217 1542l139 395h164l-190 -395h-113z" />
<glyph unicode="&#xce;" horiz-adv-x="542" d="M-2 1538l262 395h19l262 -395h-125l-146 203l-147 -203h-125zM197 0v1393h149v-1393h-149z" />
<glyph unicode="&#xcf;" horiz-adv-x="542" d="M-2 1673q0 39 28.5 66.5t65.5 27.5q39 0 67.5 -27.5t28.5 -66.5q0 -38 -29 -66t-67 -28q-37 0 -65.5 28t-28.5 66zM197 0v1393h149v-1393h-149zM352 1673q0 39 29.5 66.5t67.5 27.5q37 0 65.5 -27.5t28.5 -66.5q0 -38 -28.5 -66t-65.5 -28t-67 28t-30 66z" />
<glyph unicode="&#xd0;" horiz-adv-x="1392" d="M29 496v129h161v768h355q167 0 305.5 -51t233 -142.5t146.5 -221t52 -282.5q0 -312 -199.5 -504t-537.5 -192h-355v496h-161zM338 133h197q289 0 440 152.5t151 410.5t-151 411t-440 153h-197v-635h375v-129h-375v-363z" />
<glyph unicode="&#xd1;" horiz-adv-x="1460" d="M190 0v1407h25l832 -983q17 -21 41 -53t40 -54l15 -22q-10 99 -10 158v940h137v-1407h-25l-831 983q-17 21 -41.5 53t-40.5 54l-15 22q13 -99 13 -158v-940h-140zM430 1540q6 108 54 167.5t124 59.5q67 0 142 -65q41 -37 58 -47t40 -10q32 0 50 28.5t24 89.5l106 -10 q-6 -108 -52.5 -166.5t-123.5 -58.5q-39 0 -70.5 16.5t-70.5 50.5q-42 37 -59 47.5t-40 10.5q-63 0 -75 -121z" />
<glyph unicode="&#xd2;" horiz-adv-x="1652" d="M111 696q0 205 96 369.5t259 254t359 89.5q197 0 360.5 -89.5t260 -254t96.5 -369.5t-96.5 -369t-259.5 -253.5t-361 -89.5q-197 0 -359.5 89.5t-258.5 253.5t-96 369zM264 696q0 -123 42.5 -230.5t116.5 -184t178 -120.5t224 -44q244 0 404 165t160 414 q0 164 -72.5 296.5t-201.5 208t-290 75.5q-242 0 -401.5 -165t-159.5 -415zM582 1937h163l140 -395h-113z" />
<glyph unicode="&#xd3;" horiz-adv-x="1652" d="M111 696q0 205 96 369.5t259 254t359 89.5q197 0 360.5 -89.5t260 -254t96.5 -369.5t-96.5 -369t-259.5 -253.5t-361 -89.5q-197 0 -359.5 89.5t-258.5 253.5t-96 369zM264 696q0 -123 42.5 -230.5t116.5 -184t178 -120.5t224 -44q244 0 404 165t160 414 q0 164 -72.5 296.5t-201.5 208t-290 75.5q-242 0 -401.5 -165t-159.5 -415zM766 1542l139 395h164l-190 -395h-113z" />
<glyph unicode="&#xd4;" horiz-adv-x="1652" d="M111 696q0 205 96 369.5t259 254t359 89.5q197 0 360.5 -89.5t260 -254t96.5 -369.5t-96.5 -369t-259.5 -253.5t-361 -89.5q-197 0 -359.5 89.5t-258.5 253.5t-96 369zM264 696q0 -123 42.5 -230.5t116.5 -184t178 -120.5t224 -44q244 0 404 165t160 414 q0 164 -72.5 296.5t-201.5 208t-290 75.5q-242 0 -401.5 -165t-159.5 -415zM553 1538l262 395h19l262 -395h-125l-146 203l-147 -203h-125z" />
<glyph unicode="&#xd5;" horiz-adv-x="1652" d="M111 696q0 205 96 369.5t259 254t359 89.5q197 0 360.5 -89.5t260 -254t96.5 -369.5t-96.5 -369t-259.5 -253.5t-361 -89.5q-197 0 -359.5 89.5t-258.5 253.5t-96 369zM264 696q0 -123 42.5 -230.5t116.5 -184t178 -120.5t224 -44q244 0 404 165t160 414 q0 164 -72.5 296.5t-201.5 208t-290 75.5q-242 0 -401.5 -165t-159.5 -415zM526 1540q6 108 54.5 167.5t124.5 59.5q40 0 71.5 -16t69.5 -49q41 -37 58 -47t40 -10q32 0 50 28.5t24 89.5l106 -10q-6 -108 -52.5 -166.5t-123.5 -58.5q-39 0 -70.5 16.5t-70.5 50.5 q-42 37 -58.5 47.5t-39.5 10.5q-64 0 -76 -121z" />
<glyph unicode="&#xd6;" horiz-adv-x="1652" d="M111 696q0 205 96 369.5t259 254t359 89.5q197 0 360.5 -89.5t260 -254t96.5 -369.5t-96.5 -369t-259.5 -253.5t-361 -89.5q-197 0 -359.5 89.5t-258.5 253.5t-96 369zM264 696q0 -123 42.5 -230.5t116.5 -184t178 -120.5t224 -44q244 0 404 165t160 414 q0 164 -72.5 296.5t-201.5 208t-290 75.5q-242 0 -401.5 -165t-159.5 -415zM553 1673q0 39 28.5 66.5t65.5 27.5q39 0 67.5 -27.5t28.5 -66.5q0 -38 -29 -66t-67 -28q-37 0 -65.5 28t-28.5 66zM907 1673q0 39 29.5 66.5t67.5 27.5q37 0 65.5 -27.5t28.5 -66.5 q0 -38 -28.5 -66t-65.5 -28t-67 28t-30 66z" />
<glyph unicode="&#xd7;" horiz-adv-x="409" d="M96 500q0 46 33.5 78t77.5 32q45 0 77.5 -31.5t32.5 -78.5t-32.5 -80t-77.5 -33q-44 0 -77.5 33.5t-33.5 79.5z" />
<glyph unicode="&#xd8;" horiz-adv-x="1652" d="M106 70l166 163q-161 195 -161 463q0 205 96 369.5t259 254t359 89.5q266 0 465 -162l164 164l90 -90l-164 -162q162 -196 162 -463q0 -205 -96.5 -369t-259.5 -253.5t-361 -89.5q-268 0 -463 159l-163 -163zM264 696q0 -204 113 -358q51 51 135.5 135t262.5 261t296 295 t117 118q-148 129 -363 129q-242 0 -401.5 -165t-159.5 -415zM465 244q152 -127 360 -127q244 0 404 165t160 414q0 205 -113 359z" />
<glyph unicode="&#xd9;" horiz-adv-x="1355" d="M178 475v918h148v-908q0 -182 93 -276t259 -94q165 0 258.5 94t93.5 276v908h148v-918q0 -236 -139.5 -363.5t-360.5 -127.5q-223 0 -361.5 127.5t-138.5 363.5zM434 1937h164l139 -395h-112z" />
<glyph unicode="&#xda;" horiz-adv-x="1355" d="M178 475v918h148v-908q0 -182 93 -276t259 -94q165 0 258.5 94t93.5 276v908h148v-918q0 -236 -139.5 -363.5t-360.5 -127.5q-223 0 -361.5 127.5t-138.5 363.5zM618 1542l140 395h164l-191 -395h-113z" />
<glyph unicode="&#xdb;" horiz-adv-x="1355" d="M178 475v918h148v-908q0 -182 93 -276t259 -94q165 0 258.5 94t93.5 276v908h148v-918q0 -236 -139.5 -363.5t-360.5 -127.5q-223 0 -361.5 127.5t-138.5 363.5zM406 1538l262 395h18l262 -395h-125l-145 203l-148 -203h-124z" />
<glyph unicode="&#xdc;" horiz-adv-x="1355" d="M178 475v918h148v-908q0 -182 93 -276t259 -94q165 0 258.5 94t93.5 276v908h148v-918q0 -236 -139.5 -363.5t-360.5 -127.5q-223 0 -361.5 127.5t-138.5 363.5zM406 1673q0 39 28.5 66.5t65.5 27.5q39 0 67.5 -27.5t28.5 -66.5q0 -38 -29 -66t-67 -28q-37 0 -65.5 28 t-28.5 66zM760 1673q0 39 29 66.5t67 27.5q37 0 65.5 -27.5t28.5 -66.5q0 -38 -28.5 -66t-65.5 -28t-66.5 28t-29.5 66z" />
<glyph unicode="&#xdd;" d="M76 1393h166l379 -693q14 -24 28.5 -59t22.5 -59l8 -23q30 86 59 141l377 693h154l-516 -951v-442h-152v436zM612 1542l140 395h163l-190 -395h-113z" />
<glyph unicode="&#xde;" horiz-adv-x="1196" d="M190 0v1393h148v-162h180q271 0 417 -144t146 -380q0 -115 -36 -210.5t-105 -166t-177 -109.5t-245 -39h-180v-182h-148zM338 313h172q218 0 318 105.5t100 288.5t-100 288t-318 105h-172v-787z" />
<glyph unicode="&#xdf;" horiz-adv-x="1105" d="M152 0v1118q0 97 29.5 173t80.5 121.5t115.5 69t138.5 23.5q152 0 251 -94t99 -264q0 -109 -49.5 -191.5t-146.5 -124.5q154 -30 246 -136t92 -267q0 -194 -113.5 -316t-314.5 -122q-91 0 -156 26l31 117q43 -18 110 -18q144 0 219.5 85t75.5 230q0 154 -96.5 239.5 t-271.5 82.5v118q111 12 175 84t64 189q0 121 -60.5 181t-154.5 60q-98 0 -159.5 -64.5t-61.5 -203.5v-1116h-143z" />
<glyph unicode="&#xe0;" horiz-adv-x="964" d="M92 242q0 125 90.5 190.5t231.5 65.5h264v20q0 119 -51 173t-148 54q-158 0 -248 -122l-88 79q121 164 346 164q148 0 240 -88t92 -258v-520h-143l6 127q-95 -143 -281 -143q-141 0 -226 65.5t-85 192.5zM231 248q0 -72 52.5 -110t152.5 -38q101 0 171.5 51t70.5 132v106 h-254q-88 0 -140.5 -34t-52.5 -107zM246 1415h164l139 -395h-113z" />
<glyph unicode="&#xe1;" horiz-adv-x="964" d="M92 242q0 125 90.5 190.5t231.5 65.5h264v20q0 119 -51 173t-148 54q-158 0 -248 -122l-88 79q121 164 346 164q148 0 240 -88t92 -258v-520h-143l6 127q-95 -143 -281 -143q-141 0 -226 65.5t-85 192.5zM231 248q0 -72 52.5 -110t152.5 -38q101 0 171.5 51t70.5 132v106 h-254q-88 0 -140.5 -34t-52.5 -107zM416 1020l139 395h164l-191 -395h-112z" />
<glyph unicode="&#xe2;" horiz-adv-x="964" d="M92 242q0 125 90.5 190.5t231.5 65.5h264v20q0 119 -51 173t-148 54q-158 0 -248 -122l-88 79q121 164 346 164q148 0 240 -88t92 -258v-520h-143l6 127q-95 -143 -281 -143q-141 0 -226 65.5t-85 192.5zM213 1016l262 395h19l262 -395h-125l-146 203l-147 -203h-125z M231 248q0 -72 52.5 -110t152.5 -38q101 0 171.5 51t70.5 132v106h-254q-88 0 -140.5 -34t-52.5 -107z" />
<glyph unicode="&#xe3;" horiz-adv-x="964" d="M92 242q0 125 90.5 190.5t231.5 65.5h264v20q0 119 -51 173t-148 54q-158 0 -248 -122l-88 79q121 164 346 164q148 0 240 -88t92 -258v-520h-143l6 127q-95 -143 -281 -143q-141 0 -226 65.5t-85 192.5zM174 1018q6 108 54 167.5t124 59.5q67 0 142 -65 q42 -37 58.5 -47.5t39.5 -10.5q62 0 74 119l106 -10q-6 -108 -52.5 -166.5t-123.5 -58.5q-39 0 -70.5 16.5t-70.5 50.5q-41 36 -58 46.5t-41 10.5q-63 0 -75 -120zM231 248q0 -72 52.5 -110t152.5 -38q101 0 171.5 51t70.5 132v106h-254q-88 0 -140.5 -34t-52.5 -107z" />
<glyph unicode="&#xe4;" horiz-adv-x="964" d="M92 242q0 125 90.5 190.5t231.5 65.5h264v20q0 119 -51 173t-148 54q-158 0 -248 -122l-88 79q121 164 346 164q148 0 240 -88t92 -258v-520h-143l6 127q-95 -143 -281 -143q-141 0 -226 65.5t-85 192.5zM213 1151q0 39 28.5 66.5t65.5 27.5q39 0 67.5 -27.5t28.5 -66.5 q0 -38 -29 -66t-67 -28q-37 0 -65.5 28t-28.5 66zM231 248q0 -72 52.5 -110t152.5 -38q101 0 171.5 51t70.5 132v106h-254q-88 0 -140.5 -34t-52.5 -107zM567 1151q0 39 29.5 66.5t67.5 27.5q37 0 65.5 -27.5t28.5 -66.5q0 -38 -28.5 -66t-65.5 -28t-67 28t-30 66z" />
<glyph unicode="&#xe5;" horiz-adv-x="964" d="M92 242q0 125 90.5 190.5t231.5 65.5h264v20q0 119 -51 173t-148 54q-158 0 -248 -122l-88 79q121 164 346 164q148 0 240 -88t92 -258v-520h-143l6 127q-95 -143 -281 -143q-141 0 -226 65.5t-85 192.5zM231 248q0 -72 52.5 -110t152.5 -38q101 0 171.5 51t70.5 132v106 h-254q-88 0 -140.5 -34t-52.5 -107zM266 1196q0 87 62.5 147t152.5 60t152.5 -60t62.5 -147q0 -85 -62.5 -145t-152.5 -60t-152.5 60t-62.5 145zM375 1196q0 -51 29.5 -82t76.5 -31t77 31t30 82q0 52 -29.5 82.5t-77.5 30.5t-77 -30.5t-29 -82.5z" />
<glyph unicode="&#xe6;" horiz-adv-x="1636" d="M92 240q0 125 91 188.5t231 63.5h264v24q0 120 -50.5 174.5t-148.5 54.5q-158 0 -248 -122l-88 79q121 164 346 164q104 0 176.5 -49.5t104.5 -142.5q55 86 145 139t199 53q201 0 317.5 -136t110.5 -345h-723q12 -125 95.5 -203t220.5 -78q164 0 270 113l86 -86 q-130 -147 -354 -147q-128 0 -223.5 52.5t-149.5 145.5q-32 -96 -128 -147t-214 -51q-151 0 -240.5 65t-89.5 191zM231 246q0 -146 205 -146q101 0 171.5 51t70.5 132v102h-254q-87 0 -140 -33t-53 -106zM823 492h574q-10 108 -82.5 180.5t-198.5 72.5q-117 0 -195.5 -70 t-97.5 -183z" />
<glyph unicode="&#xe7;" horiz-adv-x="956" d="M98 424q0 186 127 314t314 128q208 0 333 -151l-102 -84q-81 108 -231 108q-133 0 -213 -89t-80 -226t80 -226t213 -89q150 0 243 110l99 -84q-126 -151 -338 -151v-93q70 -10 119 -59.5t49 -126.5q0 -82 -58.5 -131t-138.5 -49q-75 0 -127.5 33.5t-79.5 87.5l88 51 q16 -26 26.5 -39t32.5 -25t52 -12q39 0 65.5 24t26.5 68q0 42 -28 69.5t-81 27.5h-45v184q-153 31 -249.5 150t-96.5 280z" />
<glyph unicode="&#xe8;" horiz-adv-x="1056" d="M98 424q0 186 126.5 314t312.5 128q201 0 317.5 -137.5t108.5 -351.5h-721q14 -125 96.5 -199t218.5 -74q166 0 268 113l88 -86q-130 -147 -356 -147q-206 0 -332.5 125.5t-126.5 314.5zM244 485h575q-10 115 -82 187.5t-200 72.5q-120 0 -197.5 -70.5t-95.5 -189.5z M291 1415h164l139 -395h-113z" />
<glyph unicode="&#xe9;" horiz-adv-x="1056" d="M98 424q0 186 126.5 314t312.5 128q201 0 317.5 -137.5t108.5 -351.5h-721q14 -125 96.5 -199t218.5 -74q166 0 268 113l88 -86q-130 -147 -356 -147q-206 0 -332.5 125.5t-126.5 314.5zM244 485h575q-10 115 -82 187.5t-200 72.5q-120 0 -197.5 -70.5t-95.5 -189.5z M469 1020l139 395h164l-190 -395h-113z" />
<glyph unicode="&#xea;" horiz-adv-x="1056" d="M98 424q0 186 126.5 314t312.5 128q201 0 317.5 -137.5t108.5 -351.5h-721q14 -125 96.5 -199t218.5 -74q166 0 268 113l88 -86q-130 -147 -356 -147q-206 0 -332.5 125.5t-126.5 314.5zM244 485h575q-10 115 -82 187.5t-200 72.5q-120 0 -197.5 -70.5t-95.5 -189.5z M256 1016l262 395h19l262 -395h-125l-146 203l-147 -203h-125z" />
<glyph unicode="&#xeb;" horiz-adv-x="1056" d="M98 424q0 186 126.5 314t312.5 128q201 0 317.5 -137.5t108.5 -351.5h-721q14 -125 96.5 -199t218.5 -74q166 0 268 113l88 -86q-130 -147 -356 -147q-206 0 -332.5 125.5t-126.5 314.5zM244 485h575q-10 115 -82 187.5t-200 72.5q-120 0 -197.5 -70.5t-95.5 -189.5z M256 1151q0 39 28.5 66.5t65.5 27.5q39 0 67.5 -27.5t28.5 -66.5q0 -38 -29 -66t-67 -28q-37 0 -65.5 28t-28.5 66zM610 1151q0 39 29.5 66.5t67.5 27.5q37 0 65.5 -27.5t28.5 -66.5q0 -38 -28.5 -66t-65.5 -28t-67 28t-30 66z" />
<glyph unicode="&#xec;" horiz-adv-x="454" d="M-20 1415h163l140 -395h-113zM156 0v848h143v-848h-143z" />
<glyph unicode="&#xed;" horiz-adv-x="454" d="M156 0v848h143v-848h-143zM166 1020l139 395h164l-190 -395h-113z" />
<glyph unicode="&#xee;" horiz-adv-x="454" d="M-45 1016l262 395h19l262 -395h-125l-146 203l-147 -203h-125zM156 0v848h143v-848h-143z" />
<glyph unicode="&#xef;" horiz-adv-x="454" d="M-45 1151q0 39 28.5 66.5t65.5 27.5q39 0 67.5 -27.5t28.5 -66.5q0 -38 -29 -66t-67 -28q-37 0 -65.5 28t-28.5 66zM156 0v848h143v-848h-143zM309 1151q0 39 29.5 66.5t67.5 27.5q37 0 65.5 -27.5t28.5 -66.5q0 -38 -28.5 -66t-65.5 -28t-67 28t-30 66z" />
<glyph unicode="&#xf0;" horiz-adv-x="1093" d="M98 424q0 122 59 224t158.5 160t216.5 58q177 0 277 -133q-60 224 -244 445l-137 -134l-72 72l144 139q-82 93 -172 168l80 88q99 -78 182 -165l137 135l76 -74l-144 -137q336 -391 336 -824q0 -199 -128 -330.5t-318 -131.5q-191 0 -321 127t-130 313zM244 424 q0 -138 85 -228t220 -90q134 0 217.5 92.5t83.5 233.5q0 135 -83.5 222t-217.5 87q-135 0 -220 -89.5t-85 -227.5z" />
<glyph unicode="&#xf1;" horiz-adv-x="1056" d="M152 0v848h143l-4 -174q41 91 121.5 141.5t183.5 50.5q143 0 230 -93.5t87 -256.5v-516h-143v500q0 114 -53 174.5t-158 60.5q-120 0 -192 -71.5t-72 -196.5v-467h-143zM223 1018q6 108 54 167.5t124 59.5q67 0 142 -65q42 -37 58.5 -47.5t39.5 -10.5q62 0 74 119 l106 -10q-6 -108 -52.5 -166.5t-123.5 -58.5q-39 0 -70.5 16.5t-70.5 50.5q-41 37 -58 47t-40 10q-64 0 -76 -120z" />
<glyph unicode="&#xf2;" horiz-adv-x="1093" d="M98 424q0 186 130.5 314t320.5 128q189 0 317.5 -128t128.5 -314t-128.5 -313t-317.5 -127q-191 0 -321 127t-130 313zM244 424q0 -138 85 -228t220 -90q134 0 217.5 90t83.5 228t-83.5 227.5t-217.5 89.5q-135 0 -220 -89.5t-85 -227.5zM301 1415h164l139 -395h-112z " />
<glyph unicode="&#xf3;" horiz-adv-x="1093" d="M98 424q0 186 130.5 314t320.5 128q189 0 317.5 -128t128.5 -314t-128.5 -313t-317.5 -127q-191 0 -321 127t-130 313zM244 424q0 -138 85 -228t220 -90q134 0 217.5 90t83.5 228t-83.5 227.5t-217.5 89.5q-135 0 -220 -89.5t-85 -227.5zM489 1020l140 395h164l-191 -395 h-113z" />
<glyph unicode="&#xf4;" horiz-adv-x="1093" d="M98 424q0 186 130.5 314t320.5 128q189 0 317.5 -128t128.5 -314t-128.5 -313t-317.5 -127q-191 0 -321 127t-130 313zM244 424q0 -138 85 -228t220 -90q134 0 217.5 90t83.5 228t-83.5 227.5t-217.5 89.5q-135 0 -220 -89.5t-85 -227.5zM274 1016l263 395h18l262 -395 h-125l-145 203l-148 -203h-125z" />
<glyph unicode="&#xf5;" horiz-adv-x="1093" d="M98 424q0 186 130.5 314t320.5 128q189 0 317.5 -128t128.5 -314t-128.5 -313t-317.5 -127q-191 0 -321 127t-130 313zM244 424q0 -138 85 -228t220 -90q134 0 217.5 90t83.5 228t-83.5 227.5t-217.5 89.5q-135 0 -220 -89.5t-85 -227.5zM248 1018q6 108 54 167.5 t124 59.5q40 0 71.5 -16t69.5 -49q42 -37 59 -47.5t40 -10.5q32 0 49.5 28.5t23.5 90.5l107 -10q-6 -108 -52.5 -166.5t-123.5 -58.5q-39 0 -71 16.5t-71 50.5q-41 37 -58 47t-40 10q-64 0 -76 -120z" />
<glyph unicode="&#xf6;" horiz-adv-x="1093" d="M98 424q0 186 130.5 314t320.5 128q189 0 317.5 -128t128.5 -314t-128.5 -313t-317.5 -127q-191 0 -321 127t-130 313zM244 424q0 -138 85 -228t220 -90q134 0 217.5 90t83.5 228t-83.5 227.5t-217.5 89.5q-135 0 -220 -89.5t-85 -227.5zM274 1151q0 39 28.5 66.5 t66.5 27.5q39 0 67.5 -27.5t28.5 -66.5q0 -38 -29 -66t-67 -28q-37 0 -66 28t-29 66zM629 1151q0 39 29 66.5t67 27.5q37 0 65.5 -27.5t28.5 -66.5q0 -38 -28.5 -66t-65.5 -28t-66.5 28t-29.5 66z" />
<glyph unicode="&#xf7;" horiz-adv-x="409" d="M96 500q0 46 33.5 78t77.5 32q45 0 77.5 -31.5t32.5 -78.5t-32.5 -80t-77.5 -33q-44 0 -77.5 33.5t-33.5 79.5z" />
<glyph unicode="&#xf8;" horiz-adv-x="1093" d="M68 51l118 109q-88 118 -88 264q0 186 130.5 314t320.5 128q164 0 287 -102l116 106l72 -75l-115 -107q86 -120 86 -264q0 -186 -128.5 -313t-317.5 -127q-165 0 -291 102l-119 -111zM240 424q0 -93 43 -174l460 426q-79 67 -194 67q-137 0 -223 -90t-86 -229zM350 172 q84 -68 199 -68q135 0 220 90.5t85 229.5q0 102 -43 172z" />
<glyph unicode="&#xf9;" horiz-adv-x="1054" d="M143 328v520h144v-506q0 -111 53 -170t156 -59q121 0 192.5 72t71.5 196v467h143v-848h-143l4 172q-41 -90 -121 -140t-182 -50q-143 0 -230.5 92.5t-87.5 253.5zM283 1415h163l140 -395h-113z" />
<glyph unicode="&#xfa;" horiz-adv-x="1054" d="M143 328v520h144v-506q0 -111 53 -170t156 -59q121 0 192.5 72t71.5 196v467h143v-848h-143l4 172q-41 -90 -121 -140t-182 -50q-143 0 -230.5 92.5t-87.5 253.5zM467 1020l139 395h164l-190 -395h-113z" />
<glyph unicode="&#xfb;" horiz-adv-x="1054" d="M143 328v520h144v-506q0 -111 53 -170t156 -59q121 0 192.5 72t71.5 196v467h143v-848h-143l4 172q-41 -90 -121 -140t-182 -50q-143 0 -230.5 92.5t-87.5 253.5zM254 1016l262 395h19l262 -395h-125l-146 203l-147 -203h-125z" />
<glyph unicode="&#xfc;" horiz-adv-x="1054" d="M143 328v520h144v-506q0 -111 53 -170t156 -59q121 0 192.5 72t71.5 196v467h143v-848h-143l4 172q-41 -90 -121 -140t-182 -50q-143 0 -230.5 92.5t-87.5 253.5zM254 1151q0 39 28.5 66.5t65.5 27.5q39 0 67.5 -27.5t28.5 -66.5q0 -38 -29 -66t-67 -28q-37 0 -65.5 28 t-28.5 66zM608 1151q0 39 29.5 66.5t67.5 27.5q37 0 65.5 -27.5t28.5 -66.5q0 -38 -28.5 -66t-65.5 -28t-67 28t-30 66z" />
<glyph unicode="&#xfd;" horiz-adv-x="946" d="M51 848h158l240 -526q10 -24 19.5 -60t13.5 -60l5 -24q14 91 39 144l222 526h147l-553 -1282h-147l217 506zM420 1020l139 395h164l-191 -395h-112z" />
<glyph unicode="&#xfe;" horiz-adv-x="1130" d="M156 -434v1913h143v-805q46 89 130 140.5t198 51.5q173 0 289 -125.5t116 -314.5q0 -190 -116.5 -316t-290.5 -126q-111 0 -197 53t-129 139v-610h-143zM291 426q0 -139 83.5 -228t217.5 -89q132 0 212.5 88.5t80.5 228.5q0 138 -80.5 225.5t-212.5 87.5 q-134 0 -217.5 -88t-83.5 -225z" />
<glyph unicode="&#xff;" horiz-adv-x="946" d="M51 848h158l240 -526q10 -24 19.5 -60t13.5 -60l5 -24q14 91 39 144l222 526h147l-553 -1282h-147l217 506zM199 1151q0 39 28.5 66.5t65.5 27.5q39 0 67.5 -27.5t28.5 -66.5q0 -38 -29 -66t-67 -28q-37 0 -65.5 28t-28.5 66zM553 1151q0 39 29 66.5t67 27.5 q37 0 65.5 -27.5t28.5 -66.5q0 -38 -28.5 -66t-65.5 -28t-66.5 28t-29.5 66z" />
<glyph unicode="&#x152;" horiz-adv-x="2021" d="M111 696q0 313 198 505t535 192h1028v-131h-698v-654h622v-129h-622v-348h727v-131h-1057q-336 0 -534.5 192t-198.5 504zM264 696q0 -258 151.5 -410.5t440.5 -152.5h170v1127h-170q-289 0 -440.5 -153t-151.5 -411z" />
<glyph unicode="&#x153;" horiz-adv-x="1804" d="M98 424q0 186 130.5 314t320.5 128q129 0 226.5 -64.5t144.5 -172.5q46 107 141 172t221 65q201 0 317.5 -137.5t108.5 -351.5h-721q14 -125 96 -199t220 -74q166 0 268 113l88 -86q-130 -147 -354 -147q-140 0 -238.5 63.5t-146.5 171.5q-47 -107 -145 -171t-226 -64 q-191 0 -321 127t-130 313zM244 424q0 -138 85 -228t220 -90q134 0 217.5 90t83.5 228t-83.5 227.5t-217.5 89.5q-135 0 -220 -89.5t-85 -227.5zM989 485h576q-10 115 -82.5 187.5t-200.5 72.5q-120 0 -197.5 -70.5t-95.5 -189.5z" />
<glyph unicode="&#x178;" d="M76 1393h166l379 -693q14 -24 28.5 -59t22.5 -59l8 -23q30 86 59 141l377 693h154l-516 -951v-442h-152v436zM397 1673q0 39 28.5 66.5t66.5 27.5q39 0 67.5 -27.5t28.5 -66.5q0 -38 -29 -66t-67 -28q-37 0 -66 28t-29 66zM752 1673q0 39 29 66.5t67 27.5 q37 0 65.5 -27.5t28.5 -66.5q0 -38 -28.5 -66t-65.5 -28t-66.5 28t-29.5 66z" />
<glyph unicode="&#x2c6;" horiz-adv-x="1024" d="M240 1016l262 395h18l262 -395h-125l-145 203l-147 -203h-125z" />
<glyph unicode="&#x2dc;" horiz-adv-x="1024" d="M213 1018q6 108 54 167.5t124 59.5q40 0 71.5 -16t69.5 -49q42 -37 59 -47.5t40 -10.5q62 0 74 119l106 -10q-6 -108 -52.5 -166.5t-123.5 -58.5q-39 0 -70.5 16.5t-70.5 50.5q-41 36 -58 46.5t-41 10.5q-64 0 -76 -120z" />
<glyph unicode="&#x2000;" horiz-adv-x="968" />
<glyph unicode="&#x2001;" horiz-adv-x="1937" />
<glyph unicode="&#x2002;" horiz-adv-x="968" />
<glyph unicode="&#x2003;" horiz-adv-x="1937" />
<glyph unicode="&#x2004;" horiz-adv-x="645" />
<glyph unicode="&#x2005;" horiz-adv-x="484" />
<glyph unicode="&#x2006;" horiz-adv-x="322" />
<glyph unicode="&#x2007;" horiz-adv-x="322" />
<glyph unicode="&#x2008;" horiz-adv-x="242" />
<glyph unicode="&#x2009;" horiz-adv-x="387" />
<glyph unicode="&#x200a;" horiz-adv-x="107" />
<glyph unicode="&#x2010;" horiz-adv-x="585" d="M94 410v129h395v-129h-395z" />
<glyph unicode="&#x2011;" horiz-adv-x="585" d="M94 410v129h395v-129h-395z" />
<glyph unicode="&#x2012;" horiz-adv-x="585" d="M94 410v129h395v-129h-395z" />
<glyph unicode="&#x2013;" horiz-adv-x="806" d="M72 334v125h661v-125h-661z" />
<glyph unicode="&#x2014;" horiz-adv-x="1275" d="M72 334v125h1132v-125h-1132z" />
<glyph unicode="&#x2018;" horiz-adv-x="407" d="M96 1079q0 32 27 84l113 230h77l-69 -213q27 -9 47 -37t20 -62q0 -45 -32 -76.5t-74 -31.5q-43 0 -76 31t-33 75z" />
<glyph unicode="&#x2019;" horiz-adv-x="407" d="M94 987l70 213q-29 9 -48.5 36.5t-19.5 61.5q0 45 32.5 77t74.5 32q43 0 75.5 -31.5t32.5 -75.5q0 -25 -26 -83l-115 -230h-76z" />
<glyph unicode="&#x201a;" horiz-adv-x="407" d="M94 -211l70 215q-29 8 -48.5 35t-19.5 63q0 44 32.5 75.5t74.5 31.5q43 0 75.5 -31.5t32.5 -75.5q0 -28 -26 -82l-115 -231h-76z" />
<glyph unicode="&#x201c;" horiz-adv-x="731" d="M96 1079q0 32 27 84l113 230h77l-69 -213q27 -9 47 -37t20 -62q0 -45 -32 -76.5t-74 -31.5q-43 0 -76 31t-33 75zM420 1079q0 26 26 84l115 230h76l-70 -213q29 -9 48.5 -37t19.5 -62q0 -45 -32.5 -76.5t-74.5 -31.5q-43 0 -75.5 31t-32.5 75z" />
<glyph unicode="&#x201d;" horiz-adv-x="731" d="M94 987l70 213q-29 9 -48.5 36.5t-19.5 61.5q0 45 32.5 77t74.5 32q43 0 75.5 -31.5t32.5 -75.5q0 -25 -26 -83l-115 -230h-76zM418 987l69 213q-28 9 -47.5 36.5t-19.5 61.5q0 45 32 77t74 32q43 0 76 -31.5t33 -75.5q0 -31 -27 -83l-112 -230h-78z" />
<glyph unicode="&#x201e;" horiz-adv-x="731" d="M94 -211l70 215q-29 8 -48.5 35t-19.5 63q0 44 32.5 75.5t74.5 31.5q43 0 75.5 -31.5t32.5 -75.5q0 -28 -26 -82l-115 -231h-76zM418 -211l69 215q-27 8 -47 35.5t-20 62.5q0 44 32 75.5t74 31.5q43 0 76 -31.5t33 -75.5q0 -33 -27 -82l-112 -231h-78z" />
<glyph unicode="&#x2022;" horiz-adv-x="571" d="M92 537q0 82 57 138t136 56t136.5 -56t57.5 -138q0 -79 -58 -136t-136 -57t-135.5 57t-57.5 136z" />
<glyph unicode="&#x2026;" horiz-adv-x="1261" d="M96 98q0 46 33.5 78.5t77.5 32.5q45 0 77.5 -32t32.5 -79t-32.5 -79.5t-77.5 -32.5q-44 0 -77.5 33t-33.5 79zM520 98q0 46 33.5 78.5t77.5 32.5q45 0 77.5 -32t32.5 -79t-32.5 -79.5t-77.5 -32.5q-44 0 -77.5 33t-33.5 79zM944 98q0 46 33.5 78.5t77.5 32.5 q45 0 77.5 -32t32.5 -79t-32.5 -79.5t-77.5 -32.5q-44 0 -77.5 33t-33.5 79z" />
<glyph unicode="&#x202f;" horiz-adv-x="387" />
<glyph unicode="&#x2039;" horiz-adv-x="495" d="M78 401v17l192 321h148l-197 -329l197 -334h-148z" />
<glyph unicode="&#x203a;" horiz-adv-x="495" d="M78 76l196 332l-196 331h147l193 -323v-17l-193 -323h-147z" />
<glyph unicode="&#x205f;" horiz-adv-x="484" />
<glyph unicode="&#x20ac;" horiz-adv-x="1271" d="M82 336v115h149q-4 40 -4 65q0 24 4 64h-149v114h174q53 160 189.5 257.5t310.5 97.5q262 0 407 -193l-106 -82q-57 76 -127.5 113t-173.5 37q-122 0 -214.5 -61.5t-135.5 -168.5h444v-114h-473q-4 -40 -4 -64q0 -25 4 -65h473v-115h-442q43 -106 135.5 -166.5 t212.5 -60.5q111 0 184 39t131 116l105 -74q-134 -206 -420 -206q-173 0 -309.5 96.5t-190.5 255.5h-174z" />
<glyph unicode="&#x2122;" horiz-adv-x="1484" d="M98 1298v95h480v-95h-185v-514h-110v514h-185zM709 784v619h18l295 -330l293 330h18v-619h-110v383l-191 -227h-20l-193 227v-383h-110z" />
<glyph unicode="&#x25fc;" horiz-adv-x="849" d="M0 0v850h850v-850h-850z" />
<glyph unicode="&#xfb03;" horiz-adv-x="1554" d="M70 727v121h137v344q0 137 62.5 204.5t170.5 67.5q139 0 209 -90l-92 -90q-41 51 -102 51q-50 0 -77.5 -32.5t-27.5 -110.5v-344h381v385q0 137 63.5 204.5t174.5 67.5q132 0 205 -92l-91 -86q-24 25 -46.5 37t-57.5 12q-50 0 -77.5 -32.5t-27.5 -110.5v-385h525v-848 h-144v727h-381v-727h-143v727h-381v-727h-143v727h-137zM1225 1194q0 43 30.5 72.5t71.5 29.5t72 -29.5t31 -72.5t-31 -71.5t-72 -28.5t-71.5 28.5t-30.5 71.5z" />
<glyph unicode="&#xfb04;" horiz-adv-x="1562" d="M70 727v121h137v344q0 137 62.5 204.5t170.5 67.5q139 0 209 -90l-92 -90q-41 51 -102 51q-50 0 -77.5 -32.5t-27.5 -110.5v-344h381v311q0 110 48 190.5t123 118t165 37.5q141 0 236.5 -86.5t95.5 -251.5v-1167h-144v1157q0 112 -50 165.5t-138 53.5q-89 0 -141 -54 t-52 -165v-309h218v-121h-218v-727h-143v727h-381v-727h-143v727h-137z" />
</font>
</defs>
</svg>
